论坛操作

关闭

编辑标签

关闭

添加一个新标签...

错误:标签格式不正确

  • 一篇文章最多只能填 20 个标签
  • 作者以外的用户在添加、回复、删除过一个标签之后,一定时间内无法再次进行标签编辑

将文章收录至 Digger 活动频道 什么是 Digger?

收藏此文章

关闭
UserHead

爆旋陀螺 爆 58话 (无字幕)

没有可释放的技能

486

3

0

您须要登录后才能使用评分收藏功能

登录


58 - The Celestial Bey Temple.rmvb文件似乎不存在
58话 空中陀螺林寺
欢迎有爱人士光临百度钢铁战魂吧~~喜欢的就转去在线视频网站吧~
http://tieba.baidu.com/f?kw=%B8%D6%CC%FA%D5%BD%BB%EA

58 - The Celestial Bey Temple.rmvb
General
Complete name : D:\Users\DOLLOR\Documents\FFOutput\58 - The Celestial Bey Temple.rmvb
Format : RealMedia
File size : 104 MiB
Duration : 24mn 24s
Overall bit rate : 582 Kbps
Video #0
ID : 0
Format : RealVideo 4
Codec ID : RV40
Codec ID/Info : Based on AVC (H.264), Real Player 9
Duration : 24mn 24s
Bit rate : 454 Kbps
Width : 840 pixels
Height : 480 pixels
Display aspect ratio : 16:9
Frame rate : 20.000 fps
Bits/(Pixel*Frame) : 0.056
Stream size : 79.3 MiB (77%)
Audio #1
ID : 1
Format : AAC
Format/Info : Advanced Audio Codec
Codec ID : raac
Codec ID/Info : Real Player 9
Duration : 24mn 24s
Bit rate : 128 Kbps
Channel(s) : 2 channels
Sampling rate : 44.1 KHz
Resolution : 16 bits
Stream size : 22.3 MiB (22%)
avatar
您还未登录,因此您将以游客的身份回复